دانلود کنسرت جدید دیوید گیلمور در پمپی 2017 با کیفیت صوتی و تصویری مختلف / کنسرت سال 2007 به انتهای پست اضافه شد

برای دانلود اهنگ های خارجی و فیلم به کانال تلگرام @TunesWay بروید

دیوید گیلمور ، یکی از مشاهیر موسیقی راک و عضو اصلی پینک فلوید است

گیلمور که قبلا در سال 1972 به همراه گروه پینک فلوید در سالنی بدون تماشاگر قطعات آلبوم Echoes را به صورت زنده اجرا کرده بود

و فیلم کنسرتی به نام Pink Floyd – Live At Pompeii در سال 1972 به کارگردانی Adrian Maben را منتشر کرده بود ، بار دیگر به پمپئی بازگشت و اینبار در حضور هوادارانش اجراهای خیره کننده ی خود را به نمایش گذاشت

آلبوم صوتی این کنسرت با تمام کیفیت ها قرار می گیرد و نسخه های تصویری هم با بهترین کیفیت ها قرار داده خواهد شد

دانلود لایو آلبوم کنسرت جدید David Gilmour به نام Live At Pompeii 2017

دانلود آلبوم با کیفیت FLAC 16 / 44

کیفیت فلک 24 بیت با فرکانس 96000 ، بالاترین کیفیت ممکن

دانلود آلبوم با کیفیت FLAC 24 /96

دانلود لایو آلبوم با کیفیت آیتونز M4A

دانلود لایو آلبوم با کیفیت 320

کاور آرت ها و بوتلگ آلبوم پمپئی دیوید گیلمور با کیفیت بسیار بالا

دانلود کاورها Artwork

دانلود کاور ها ، بوکلت ها و عکس های نسخه فلک 24 بیت

دانلود کاورها Booklet, Box, Raw

دانلود کنسرت جدید دیوید گیلمور در پمپی David Gilmour: Live At Pompeii 2017

کنسرت تصویری پمپئی دیوید گیلمور 2017 با کیفیت 1080p BDrip

کنسرت پمپی در دو پارت با بالاترین کیفیت ممکن بلوری ریپ (BDrip) حجم 8 و 10 گیگی

دانلود کنسرت جدید دیوید گیلمور در پمپی

1080p BDrip Part 1 – 8GB – MKV

1080p BDrip Part 2 – 10GB – MKV

مشخصات تصویری نسخه بلوری ریپ
مشخصات تصویری :

Bit rate : 14.0 Mb/s

Width : 1 920 pixels
Height : 1 080 pixels
Display aspect ratio : 16:9
Frame rate : 23.976 (24000/1001) FPS

Bit depth : 8 bits

Stream size : 6.67 GiB (82%)

مشخصات صوتی : 6 کاناله و 24 بیت

Format : DTS
Format/Info : Digital Theater Systems
Mode : 16
Codec ID : A_DTS
Duration : 1 h 8 min
Bit rate mode : Constant
Bit rate : 1 509 kb/s
Channel(s) : 6 channels
Channel positions : Front: L C R, Side: L R, LFE
Sampling rate : 48.0 kHz
Frame rate : 93.750 FPS (512 SPF)
Bit depth : 24 bits
Compression mode : Lossy

Stream size : 736 MiB (9%)

Download David Gilmour: Live At Pompeii 2017 Blu-Ray Full Concert

دانلود کنسرت جدید دیوید گیلمور در پمپی David Gilmour: Live At Pompeii 2017

اما برای دوستانی که نمی توانند با این حجم بالا دانلود کنند نسخه ی 1080 معمولی و 720 معمولی را ریپ کردیم

دانلود کنسرت جدید دیوید گیلمور در پمپی

1080p Mp4 Part 1 | 1.3 GB

1080p Mp4 Part 2 | 1.7 GB

720p Mp4 Part 1 | 830 MB

720p Mp4 Part 2 | 998 MB

نسخه تصویری آیتونز کنسرت پمپئی دیوید گیلمور در یک پارت

480p M4V | 1.8 GB

مسخصات تصویری 1080 معمولی

Bit rate : 2 773 kb/s
Width : 1 920 pixels
Height : 1 080 pixels
Display aspect ratio : 16:9
Chroma subsampling : 4:2:0
Bit depth : 8 bits

Stream size : 1.63 GiB (96%)

مشخصات صوتی : 2 کاناله 16بیت

Format : AAC
Bit rate : 126 kb/s
Channel(s) : 2 channels
Channel positions : Front: L R
Sampling rate : 44.1 kHz
Frame rate : 43.066 FPS (1024 SPF)
Compression mode : Lossy
Stream size : 75.6 MiB (4%)

دانلود کنسرت جدید دیوید گیلمور در پمپی با لینک مستقیم رایگان

دانلود کنسرت جدید دیوید گیلمور در پمپی David Gilmour: Live At Pompeii 2017

Format: Live, Widescreen
Language: English
Region: All Regions (Read more about DVD/Blu-ray formats.)
Aspect Ratio: 16:9 – 1.77:1
Number of discs: 1
Classification: To be announced
Studio: Columbia
DVD Release Date: 29 Sept. 2017
Run Time: 114 minutes

Download David Gilmour: Live At Pompeii 2017 BluRay Full ConcertDavid Gilmour, ‘Live at Pompeii’ Track Listing
“5 A.M.”
“Rattle That Lock”
“Faces of Stone”
“What Do You Want From Me”
“The Blue”
“The Great Gig in the Sky”
“A Boat Lies Waiting”
“Wish You Were Here”
“Money”
“In Any Tongue”
“High Hopes”
“One of These Days”
“Shine On You Crazy Diamond”
“Fat Old Sun”
“Coming Back to Life”
“On An Island”
“Today”
“Sorrow”
“Run Like Hell”
“Time / Breathe (In The Air)” (reprise)
“Comfortably Numb”


 David Gilmour Remember That Night 2007 (Pink Floyd)

دانلود کنسرت بی نظیر دیوید گیلمور در رویال آلبرت هال 2007 با 2 کیفیت بلوری و 2 کیفیت معمولی

David Gilmour Remember That Night 2007 (Pink Floyd)
Live at the Royal Albert Hall

در این کنسرت ریچارد رایت (عضو پینک فلوید) هم به عنوان کیبورد پلیر حضور دارد
ریچارد رایت سال بعد از این کنسرت در 15 September 2008 فوت کرد

Genre : #Progressive_Rock
کنسرت در دو دیسک می باشد
حجم کیفیت بلوری بسیار بالاست و برای دوستانی که نمی توانند با این حجم دانلود کنند کیفیت معمولی ریپ شده است

 David Gilmour Remember That Night 2007 (Pink Floyd)

BDrip 1080p Disc1 16 GB
http://opizo.com/CFYb8r
BDrip 1080p Disc2 8 GB
http://opizo.com/Rkh1yA

کیفیت معمولی
1080p Disc1 3.6 GB
http://opizo.com/sKQuPx
1080p Disc2 2.2 GB
http://opizo.com/J95ZAc

720p Disc1 1.7 GB
http://opizo.com/h2OEzj
720p Disc2 1.3 GB
http://opizo.com/UCKbyp

6 comments

عالی بود این کنسرت جناب عباسی ……
منتظر نسخه کیفیت بالا هستیم
ممنون از شما و این آثار فوقالعاده ای که با ما به اشتراک میزارید

آقا عااااااالی …. من دنبالش بودم بدجووووور 🙂
ممنون میشم کنسرتای راک از جمله همین گیلمور و پینک فلوید هم تو سایتتون بتونید آپلود کنید با تشکر فراوان 🙂

Leave a comment

نشانی ایمیل شما منتشر نخواهد شد. بخش‌های موردنیاز علامت‌گذاری شده‌اند *

*
*